Supersamiec / Superbad (2007) [720p] [UNRATED] [BR
Seed:16
Leech:1

Ślad (2018) [S01E21 22] [720p] [WEB DL] [x264] [P
Seed:179
Leech:1tyś

Diagnoza (2018) [S03E13] [720p] [WEB DL] [x264] [P
Seed:289
Leech:1tyś

Humans (2015) [S03E07] [720p] [HDTV] [XViD] [AC3 H
Seed:39
Leech:47

Grisse (2018) [S01E03] [480p] [WEBRip] [XviD] [AC3
Seed:158
Leech:184

Pierwsza Miłość (2018) [E2766] [WEBRIP] [x264]
Seed:119
Leech:132

Wieczna miłość   Kara Sevda (2015 2017) [S01E61
Seed:68
Leech:62

Elif (2014) [S01E369] [WEBRip] [x264] [Lektor PL]
Seed:70
Leech:37

Składanka   Disco (2018) vol 3 [mp3@128 320 kbps]
Seed:326
Leech:112

Sprawy Frankie Drake   Frankie Drake Mysteries (20
Seed:100
Leech:69

Prawdziwy Jezus z Nazaretu   The Real Jesus of Naz
Seed:584
Leech:408

Prawdziwy Jezus z Nazaretu   The Real Jesus of Naz
Seed:366
Leech:353

Składanka   Disco (2018) vol 2 [mp3@128 320 kbps]
Seed:299
Leech:155

W matni   The Killing Jar (2010) [DVDRip] [XviD] [
Seed:240
Leech:130

Aleja pamięci   Memory Lane (2012) [480p] [BRRip]
Seed:303
Leech:81

Sisi   Sissi (2009) [Część2] [720p] [HDTV] [XVi
Seed:87
Leech:84

Sisi   Sissi (2009) [Część1] [720p] [HDTV] [XVi
Seed:183
Leech:176

Krotkie spiecie 2   Short Circuit 2 (1988) [720p]
Seed:57
Leech:138

Krótkie spięcie   Short Circuit (1986) [720p] [H
Seed:88
Leech:117

Czas śmierci   In the Dark (2016) [S01E03] [720p]
Seed:158
Leech:100

Ślub od pierwszego wejrzenia (2018) [S03E12] [WEB
Seed:280
Leech:238

Naznaczeni   The Gifted (2018) [S02E07] [720p] [HD
Seed:339
Leech:236

Biuro szpiegów   Le Bureu des Legende (2018) [S04
Seed:191
Leech:84

Slender Man (2018) [BDRip] [XviD] [MPEG KiT] [Lekt
Seed:397
Leech:172

Pierwsza Miłość (2018) [E2765] [WEBRIP] [x264]
Seed:57
Leech:35

Wieczna miłość   Kara Sevda (2015 2017) [S01E60
Seed:106
Leech:85

Składanka   Disco (2018) vol 1[mp3@128 320 kbps]
Seed:299
Leech:122

Elif (2014) [S01E368] [WEBRip] [x264] [Lektor PL]
Seed:71
Leech:61

Chłopaki do wzięcia (2018) [S14E07] [720p] [WEBR
Seed:208
Leech:118

Ekipa z Warszawy   Warsaw Shore (2018) [S10E05] [W
Seed:620
Leech:472

Kategorie
Programy

uTorrent

uTorrent
Polecane Przeglądarki

mozilla chrome chrome explorer
Adobe Flash Player

Adobe Flash Player
Speed Test

SpeedTest
Hosting Zapewnia

Hekko
Radio Zapewnia

Slotex
TwójLimit

TwójLimit
iCash.pl

iCash
Zarabiaj Razem ze Mną

opinie.pl
Statystyki

website counter
***Torrent***
Kategoria: Erotyka » Filmy

Dodał:
lnlicodg
Data dodania:
2018-11-09 03:20:23
Rozmiar: 6.71 GB
Seedów: 1
Peerów: 0
Pobrano: 2 razy

Aktualizuj trackery





[DDFNetworkVR] Russian Luxury Massage - Liza Billberry (Oculus/Vive) [.mp4]



Tagi: vr.porn.main.category 
Format: mp4



http://gej-torrenty.hcore.pl/automat/c.php?opis=20271486



Title
Russian Luxury Massage



Synopsis : When you enter the Room of the very fascinating "Adult-Only" Massage Parlor in 5K 3D Virtual Reality, you're first glimpse of whats to come is the Very tall Slender, and Incredibly Horny Liza Bilberry taking a Bubble bath, and beckoning for you to come to her.
She does not waste time and shows you her Tight body complete with itsy bitsy Shaved Pussy and perky tits ready to be sucked. Not before she does her own Sucking of your cock and balls though and lets you finger her slick and soapy snatch.
It's not long before you'll find yourself on the Massage table, with full body to body oil treatment, some more sucky before the fucky, and Liza bouncing up and down on your lucky Dick with reckless abandon.
Take her to the floor for some Ground and Pound in Doggy Style and Missionary before shooting your pent up load all over her very welcoming physique. Another episode of CourtesanVR brought to you by DDFNetwork VR in 2D Format as well!
Sex Acts: blowjob, handjob, cowgirl, reverse cowgirl, missionary, doggystyle
Click for full preview
Info
General
Complete name                            : DDFNetworkVR_Russian_Luxury_Massage_Liza_Billberry_and_Raul_Costa_5400x2700_30000_cbr_60fps_sbs_LR_180.mp4
Format                                   : MPEG-4
Format profile                           : Base Media / Version 2
Codec ID                                 : mp42
File size                                : 6.71 GiB
Duration                                 : 31mn 39s
Overall bit rate mode                    : Variable
Overall bit rate                         : 30.3 Mbps
Encoded date                             : UTC 2018-10-25 11:41:31
Tagged date                              : UTC 2018-10-25 11:45:34
?TIM                                     : 00;00;00;00
?TSC                                     : 60000
?TSZ                                     : 1001
Video
ID                                       : 1
Format                                   : HEVC
Format/Info                              : High Efficiency Video Coding
Codec ID                                 : hvc1
Codec ID/Info                            : High Efficiency Video Coding
Duration                                 : 31mn 39s
Source duration                          : 31mn 39s
Bit rate                                 : 30.0 Mbps
Width                                    : 5 400 pixels
Height                                   : 2 700 pixels
Display aspect ratio                     : 2.000
Frame rate mode                          : Constant
Frame rate                               : 59.940 fps
Bits/(Pixel*Frame)                       : 0.034
Stream size                              : 6.63 GiB (99%)
Source stream size                       : 6.63 GiB (99%)
Language                                 : English
Encoded date                             : UTC 2018-10-25 11:41:31
Tagged date                              : UTC 2018-10-25 11:41:31
Audio
ID                                       : 2
Format                                   : AAC
Format/Info                              : Advanced Audio Codec
Format profile                           : LC
Codec ID                                 : 40
Duration                                 : 31mn 39s
Source duration                          : 31mn 39s
Bit rate mode                            : Variable
Bit rate                                 : 317 Kbps
Maximum bit rate                         : 439 Kbps
Channel(s)                               : 6 channels
Channel positions                        : Front: L C R, Side: L R, LFE
Sampling rate                            : 48.0 KHz
Compression mode                         : Lossy
Stream size                              : 71.9 MiB (1%)
Source stream size                       : 71.9 MiB (1%)
Language                                 : English
Encoded date                             : UTC 2018-10-25 11:41:31
Tagged date                              : UTC 2018-10-25 11:41:31
Initial Seeding only... don't request reseed
If a scene/format is not available, make a request
USE requests.php ...No requests in Comments
Don't spam with useless comments...use the Thanks button
Credits are always appreciated
No, there is no non-VR
Most of Japanese porn is censored. That includes VR content
- i<3VR
Handy Features & Userscripts
To show thumbnails, all versions, & your favourite tags highlighted like this..
Check out these userscripts: Direct Thumbnails, Collapse Duplicates and Tag Highlighter
    

Lista plikówShow/Hide [Pokaż/Ukryj]
Trackery
Tracker URLSeedówPeerówPobrań
http://tracker.vanitycore.co:6969/announce100
http://agusiq-torrents.pl:6969/announce000
http://webapp5.alwaysdata.net/announce/b4a9fe3975f408b33f0e7000
udp://tracker.opentrackr.org:1337/announce000
udp://tracker.publicbt.com:80/announce000
http://ger87.000webhostapp.com/automat/anuanPB.php000
Podobne Pozycje

Komentarze
Dodaj komentarz

Brak komentarzy!