SHADOWS TORRENTS - DARMOWE TORRENTY - FILMY GRY PROGRAMY
Prewencja kryminalna: Inwigilacja 3 0   Pre Crime
Seed:7
Leech:121

Podatek od miłości (2018) [480p] [HDTV] [XviD] [
Seed:118
Leech:1tyś

Nieuchwytni   Tracers (2015) [480p] [HDTV] [XViD]
Seed:23
Leech:442

LEGO Batman: Film   The LEGO Batman Movie (2017) [
Seed:95
Leech:167

Gorączka złota   Gold Rush (2018) [S09E22] [720p
Seed:277
Leech:253

Ci, co przeżyli (2007) [PDTV] [x264] [AAC] [PL] [
Seed:145
Leech:70

Ajka   Ayka (2018) [480p] [HDTV] [XViD] [AC3 H1] [
Seed:382
Leech:764

Rodzinka pl (2018) [S14E04] [480p] [WEB DL][x264]
Seed:478
Leech:351

Magnum: Detektyw z Hawajów   Magnum P I : I Saw t
Seed:428
Leech:423

Kanciarz / Con Man (2018) [BRRiP] [XviD LTS] [Lekt
Seed:1tyś
Leech:1tyś

Faworyta / The Favourite (2018) [BDRip] [XviD KiT]
Seed:584
Leech:723

O mnie się nie martw (2018) [S10E05] [480p]  [WEB
Seed:657
Leech:315

Barwy szczęścia 2017 [E2029 2033] [WEBRIP] [x264
Seed:407
Leech:399

Pierwsza Miłość (2018) [E2850] [WEBRIP] [x264]
Seed:311
Leech:524

Korona królów (2018) [odc 197] [WEB DL] [PL] [H1
Seed:538
Leech:385

Kill Bill (2003) [DvDRip] [XviD] [AC3 Becia] [Lekt
Seed:27
Leech:28

Perła Fidżi   Pearl in Paradise (2018) [480p] [H
Seed:595
Leech:518

Odwyk   Pretty Little Addict (2015) [PDTV] [480p]
Seed:373
Leech:253

Ślad (2018) [S01E45] [WEB DL] [x264] [PL] [Hytry1
Seed:1tyś
Leech:859

Han Solo: Gwiezdne wojny   historie   Solo: A Star
Seed:236
Leech:124

Fernando   Ferdinand (2017) [480p] [HDTV] [XViD] [
Seed:192
Leech:96

Producenci   The Producers (2005) [480p] [BRRip] [
Seed:37
Leech:196

Brud / The Dirt (2019) [NF] [WEB DL] [XviD KiT] [L
Seed:660
Leech:403

Na Wspólnej (2019) [E2847 49] [576p] [WEB DL] [x
Seed:767
Leech:497

Kuchenne Rewolucje (2018) [S19E04] [720p] [WEB DL]
Seed:719
Leech:599

Wilkołak: Bestia wśród nas / Werewolf: The Beas
Seed:260
Leech:214

Ojciec Mateusz (2017) [S21E04] [WEB DL] [XViD] [PL
Seed:852
Leech:340

Korona królów (2018) [odc 194 96] [WEB DL] [PL]
Seed:1tyś
Leech:390

Na Wspólnej (2019) [E2846] [576p] [WEB DL] [x 264
Seed:239
Leech:335

Resident Evil Collection (2002 2016) [720p] [BRRip
Seed:621
Leech:1tyś

Kategorie
Polecane Przeglądarki

mozilla chrome chrome explorer
Adobe Flash Player

Adobe Flash Player
Hosting Zapewnia

Hekko.pl
Radio Zapewnia

Slotex.pl
TwójLimit

TwójLimit.pl
Dołącz i zarabiaj

opinie.pl
Dołącz i zarabiaj

ariadna.pl
Dołącz i zarabiaj

ermail.pl
Statystyki

website counter
***Torrent***
Kategoria: Erotyka » Filmy

Dodał:
lnlicodg
Data dodania:
2018-11-09 03:24:41
Rozmiar: 1.80 GB
Seedów: 1
Peerów: 0
Pobrano: 1 razy

Aktualizuj trackery







[VisitXVR] Three Amateur Babes Suck and Fuck Five Cocks in a Public Toilet (Oculus) [.mp4]



Tagi: vr.porn.main.category 
Format: mp4



http://gej-torrenty.hcore.pl/automat/c.php?opis=20271491



Title
  Three Amateur Babes Suck and Fuck Five Cocks in a Public Toilet



Synopsis : Three Amateur Babes Suck and Fuck Five Cocks in a Public Toilet
Girls give blowjob , ride in cowgirl position, get fucked in doggystyle
Click for full preview
Info
General
Complete name                  : VisitXVR_Three Amateur Babes Suck and Fuck Five Cocks in a Public Toilet_MONO_360.mp4
Format                         : MPEG-4
Format profile                 : Base Media
Codec ID                       : isom (isom/iso2/mp41)
File size                      : 1.80 GiB
Duration                       : 16 min 42 s
Overall bit rate               : 15.4 Mb/s
Writing application            : Lavf58.12.100
Video
ID                             : 1
Format                         : HEVC
Format/Info                    : High Efficiency Video Coding
Format profile                 : Main@L5.1@High
Codec ID                       : hev1
Codec ID/Info                  : High Efficiency Video Coding
Duration                       : 16 min 42 s
Bit rate                       : 15.2 Mb/s
Width                          : 3 840 pixels
Height                         : 1 920 pixels
Display aspect ratio           : 2.000
Frame rate mode                : Constant
Frame rate                     : 59.940 (59940/1000) FPS
Color space                    : YUV
Chroma subsampling             : 4:2:0
Bit depth                      : 8 bits
Scan type                      : Progressive
Bits/(Pixel*Frame)             : 0.034
Stream size                    : 1.77 GiB (99%)
Writing library                : x265 2.8+45-d5f8df326dd7:[Linux][GCC 6.3.0][64 bit] 8bit+10bit+12bit
Encoding settings              : cpuid=1111039 / frame-threads=2 / numa-pools=2 / wpp / no-pmode / no-pme / no-psnr / no-ssim / log-level=2 / input-csp=1 / input-res=3840x1920 / interlace=0 / total-frames=0 / level-idc=0 / high-tier=1 / uhd-bd=0 / ref=4 / no-allow-non-conformance / no-repeat-headers / annexb / no-aud / no-hrd / info / hash=0 / no-temporal-layers / open-gop / min-keyint=25 / keyint=250 / gop-lookahead=0 / bframes=4 / b-adapt=2 / b-pyramid / bframe-bias=0 / rc-lookahead=25 / lookahead-slices=4 / scenecut=40 / radl=0 / no-intra-refresh / ctu=64 / min-cu-size=8 / rect / no-amp / max-tu-size=32 / tu-inter-depth=1 / tu-intra-depth=1 / limit-tu=0 / rdoq-level=2 / dynamic-rd=0.00 / no-ssim-rd / signhide / no-tskip / nr-intra=0 / nr-inter=0 / no-constrained-intra / strong-intra-smoothing / max-merge=3 / limit-refs=3 / limit-modes / me=3 / subme=3 / merange=57 / temporal-mvp / weightp / no-weightb / no-analyze-src-pics / deblock=0:0 / sao / no-sao-non-deblock / rd=4 / no-early-skip / rskip / no-fast-intra / no-tskip-fast / no-cu-lossless / no-b-intra / no-splitrd-skip / rdpenalty=0 / psy-rd=2.00 / psy-rdoq=1.00 / no-rd-refine / no-lossless / cbqpoffs=0 / crqpoffs=0 / rc=crf / crf=14.0 / qcomp=0.60 / qpstep=4 / stats-write=0 / stats-read=0 / vbv-maxrate=60000 / vbv-bufsize=600000 / vbv-init=0.9 / crf-max=0.0 / crf-min=0.0 / ipratio=1.40 / pbratio=1.30 / aq-mode=1 / aq-strength=1.00 / cutree / zone-count=0 / no-strict-cbr / qg-size=32 / no-rc-grain / qpmax=69 / qpmin=0 / no-const-vbv / sar=1 / overscan=0 / videoformat=5 / range=0 / colorprim=2 / transfer=2 / colormatrix=2 / chromaloc=0 / display-window=0 / max-cll=0,0 / min-luma=0 / max-luma=255 / log2-max-poc-lsb=8 / vui-timing-info / vui-hrd-info / slices=1 / no-opt-qp-pps / no-opt-ref-list-length-pps / no-multi-pass-opt-rps / scenecut-bias=0.05 / no-opt-cu-delta-qp / no-aq-motion / no-hdr / no-hdr-opt / no-dhdr10-opt / no-idr-recovery-sei / analysis-reuse-level=5 / scale-factor=0 / refine-intra=0 / refine-inter=0 / refine-mv=0 / no-limit-sao / ctu-info=0 / no-lowpass-dct / refine-mv-type=0 / copy-pic=1 / max-ausize-factor=1.0 / no-dynamic-refine / no-single-sei
Color range                    : Limited
Codec configuration box        : hvcC
Audio
ID                             : 2
Format                         : AAC LC
Format/Info                    : Advanced Audio Codec Low Complexity
Codec ID                       : mp4a-40-2
Duration                       : 16 min 42 s
Bit rate mode                  : Constant
Bit rate                       : 192 kb/s
Channel(s)                     : 2 channels
Channel layout                 : L R
Sampling rate                  : 48.0 kHz
Frame rate                     : 46.875 FPS (1024 SPF)
Compression mode               : Lossy
Stream size                    : 22.6 MiB (1%)
Default                        : Yes
Alternate group                : 1
Initial Seeding only... don't request reseed
If a scene/format is not available, make a request
USE requests.php ...No requests in Comments
Don't spam with useless comments...use the Thanks button
Credits are always appreciated
No, there is no non-VR
Most of Japanese porn is censored. That includes VR content
- i<3VR
Handy Features & Userscripts
To show thumbnails, all versions, & your favourite tags highlighted like this..
Check out these userscripts: Direct Thumbnails, Collapse Duplicates and Tag Highlighter
    

Lista plikówShow/Hide [Pokaż/Ukryj]
Trackery
Tracker URLSeedówPeerówPobrań
http://tracker.vanitycore.co:6969/announce100
http://agusiq-torrents.pl:6969/announce000
http://webapp5.alwaysdata.net/announce/d0319f8888d4ff4da5920000
udp://tracker.opentrackr.org:1337/announce000
udp://tracker.publicbt.com:80/announce000
http://ger87.000webhostapp.com/automat/anuanPB.php000

Komentarze
Dodaj komentarz

Brak komentarzy!